&title=[宴] Garakuta Doll Play
&artist=t+pazolite
&wholebpm=256.0
&lv_7=宴
&inote_7=
(256.0){1},
{8}4,,,,6,5,,7,
{8},,,,7,5,6,4,
{8}5,,,,4,5,,3,
{4},,2/5,4/7,
{8}5,,,,3,4,,2,
{8},,,,2,4,3,5,
{8}4,,,,5,4,,6,
{4},,4/7,2/5-1[8:7],
{8}6,,,,7,7,,5h[8:5],
{8},,,,6,5,4^7[8:7],3,
{8}2,,,,4,4,,2h[8:5],
{4},,5,7/4-8[8:7],
{8}3,,,,2,2,,4h[8:5],
{8},,,,3,4,5^2[8:7],6,
{8}7,,,,5,5,,7,
{4}4/5,1/8,3q8[8:1]/6p1[8:1],,
{4}2/7,3/4,2/7,5/6,
{8}2/7,,4/5,,1/8,,2/4,2,
{4}2/4,5/7,1/3,6/8,
{16}2,1,8,7,6-1[8:1],,,,4,,,,,,,,
{4}5/7,2/4,6/8,1/3,
{16}7,8,1,2,3-8[8:1],,,,5,,,,,,,,
{8}4,8,8,8,2,6,6-4[8:1],6,
{4}3-7[8:1],8-2[8:1],4,8b,
{8}6,,,4,4,,3/7,,
{4}2/6,1/5,4^7[8:1]/8^3[8:1],,
{4}2/6,4/8,1/5,3/7,
{16}5,4,3,2,1-6[8:1],,,,3,,,,,,,,
{4}3/7,1/5,4/8,1/5,
{16}4,5,6,7,8-3[8:1],,,,6,,,,,,,,
{8}3,7,7,7,1,5,5,5,
{8}2,4,3,5,4,6,5,7,
{4}4/6,2/5,3/7,5/1-4[8:1],
{4}6-1[8:1],3-6[8:1],8,4,
{4}3/5,4/7,2/6,4/8-5[8:1],
{4}3-8[8:1],6-3[8:1],1,4,
{4}4/6,2/5,3/7,5/1-4[8:1],
{4}6-1[8:1],3-6[8:1],8,4,
{8}5,1,1,1,7,3,3-5[8:1],3,
{4}6-2[8:1],1-7[8:1],5,1b,
{4}3/5,4/7,2/6,4/8-5[8:1],
{4}8/3-8[8:1],3/6-3[8:1],1/6,5,
{4}4/6,2/5,3/7,5/1-4[8:1],
{4}1/6-1[8:1],6/3-6[8:1],3/8,5,
{8}8,1,8,,3,4,2,,
{8}6,5,7,,1w5[8:1],8,1,,
{8}7,,,2,,2,,2,
{2},7b,
{8}3qq5[4:3],,,5,,,7,,
{4},1,8,7,
{8}6pp4[4:3],,,4,,,2,,
{8},3,3,3,3-6[8:1]*-8[8:1],,,,
{8}7pp4[4:3],,,4,,,2,,
{4},8,6,4,
{8}2qq5[4:3],,,5,,,7,,
{8},6,6,6,6-1[8:1]*-3[8:1],,,,
{1}2b,
{8}2/3,,,5/8,,,2/3,,
{1}1/4,
{8}6/7,,,1/4,,,6/7,,
{16}5,,,,,,,,2/1<5[4:1],,,,5,4,3,2,
{16}1,,,,,,,,8>4[4:1],,,,4,5,6,7,
{4}8,1,6,2-5[8:1],
{4}5-2[8:1],7-4[8:1],4-7[8:1],,
{4}6,5/8,1/4,3/2-5[8:1],
{4}1-4[8:1],8-3[8:1],7,6,
{4}2/3,1/4,5/8,6/7-4[8:1],
{4}8-5[8:1],1-6[8:1],2,3,
{4}4/5,6/7,1/8,3/2-5[8:1],
{4}1-4[8:1],8-3[8:1],7,6,
{4}3/5,4/7,2/6,4/8,
{1}1b,
{4}2/3,5/8,6/7,4/1-4[8:1],
{4}5-2[8:1],3-8[8:1],6,1,
{4}6/7,1/4,2/3,5/8-5[8:1],
{4}4-7[8:1],6-1[8:1],3,8,
{4}4/6,2/5,3/7,1/5,
{8}8,,4,,1,8,1-6[8:1],8-3[8:1],
{4},,2,6,
{8}4,4,,5,5b/7b,,4b/5b,,
{8}4/2V46[1:1],,,,8,8-2[8:3],,8,
{8},,,,3,4,5,6,
{8}7V53[1:1],,,,1,1-7[8:3],,1,
{4},,6,2,
{8}6V82[1:1],,,,3,3-7[8:3],,3,
{8},,,,7,6,5,4,
{8}3V17[1:1],,,,6,6-2[8:3],,6,
{4},,2,4/8,
{8}2/6-2[4:1],,,,3,4,3,4,
{8}3h[4:1],,2,2,3,,5,,
{8}7/3-7[4:1],,,,6,5,6,5,
{8}6h[4:1],,5,5,7,7,,1,
{8}1-5[4:1],,,,7,2,5,4,
{8}5h[4:1],,4,4,5,,2,3,
{16}4,,5,,6,,7,,1/8,2,3,4,5,6,7,8,
{4}1/5,2/6,4b/8b,,
{4}5/2-5[8:1],2/7,6/1-6[8:1],1/8-4[8:1],
{4}3-8[8:1],7-4[8:1],1,5,
{4}4/7-4[8:1],2/7,3/8-3[8:1],8/1-5[8:1],
{4}6-1[8:1],2-5[8:1],8,4,
{4}6/1-6[8:1],1/7,3/8-3[8:1],8/2-4[8:1],
{8}5-7[8:1],,1-5[8:1],,8,,2,2,
{8},7,6,5,2,3,4-2[8:1],5,
{4}6-8[8:1],1-5[8:1],7,3,
{4}4/7-4[8:1],2/7,3/8-3[8:1],8/1-5[8:1],
{4}6-1[8:1],2-5[8:1],8,4,
{4}5/2-5[8:1],2/7,6/1-6[8:1],1/8-4[8:1],
{4}3-8[8:1],7-4[8:1],1,5,
{4}3/8-3[8:1],2/8,6/1-6[8:1],1/7-5[8:1],
{8}4-2[8:1],,8-4[8:1],,1,,3,3,
{8},8,8,8,8,8,8,8,
{4}4,6,2,1/8b,
{8}3,3,3,3,7,7,7-1[8:1],7,
{8}2-6[8:1],2,5-3[8:1],5,8,8,4b/8,,
{8}6,6,6,6,2,2,2-8[8:1],2,
{8}7-3[8:1],7,4-6[8:1],4,1,1,1/5b,,
{8}3,3,3,3,1,1,1-5[8:1],1,
{8}4-8[8:1],4,6-2[8:1],6,1,1,1/5b,,
{8}6,6,6,6,8,8,8-4[8:1],8,
{8}5-1[8:1],5,3-7[8:1],3,8,8,1b/8-4[8:1],,
{8}3-7[8:1],3,6-2[8:1],6,1-5[8:1],1,7-3[8:1],7,
{8}4-8[8:1],4,6,6,1,1,1b/8-4[8:1],,
{8}3-7[8:1],3,6-2[8:1],6,1-5[8:1],1,6-1[8:1],6,
{8}3-8[8:1],3,5-1[8:1],5,2,2,2/7b,,
{8}3/5,3/5,4/7,4/7,2/6,2/6,4/8,4/8,
{16}3/7,6,5,4,1,8,7,6,3,2,1,8,7,6,5,4,
{8},1,2,3,8,7,6,5,
{1}4b,
{1}1/8,
E
